Torrent Details

Photo Not Available
Suriya Ka Yaarana (2018) 720p Hindi Dubbed WEBHD x264 AAC ESubs 1 1GB - MovCr
Size1.2 GB in 1 file
ReleasesAdded on 25.09.2018 at 3:13 into the Movies category by Unknown.
Status0 seeds & 0 peers.
Hashc3a09b6bcfd5fa6d16607b8d8b9e8c4ff7f4ff35
Rating
  • YourBT Visitors

Status This torrent has been verified.
*

Torrent Description

Our Site www.movcr.com


Suriya Ka Yaarana (Vaaranam Aayiram) (2018) 720p Hindi Dubbed WEBHD x264 AAC ESubs 1.1GB - MovCr


http://www.imdb.com/title/tt1180583/



General
Unique ID : 333885935282225745896867020201804414373 (0xFB3017925B580C3465C063CA3443BDA5)
Complete name : www.MovCr.com - Suriya Ka Yaarana (2018) 720p Hindi Dubbed WEBHD x264 AAC ESubs 1.1GB - MovCr.mkv
Format : Matroska
Format version : Version 4 / Version 2
File size : 1.16 GiB
Duration : 2 h 44 min
Overall bit rate : 1 006 kb/s
Movie name : www.MovCr.com
Encoded date : UTC 2018-09-20 12:32:12
Writing application : mkvmerge v26.0.0 ('In The Game') 64-bit
Writing library : libebml v1.3.6 + libmatroska v1.4.9

Video
ID : 1
Format : AVC
Format/Info : Advanced Video Codec
Format profile : [email protected]
Format settings : CABAC / 3 Ref Frames
Format settings, CABAC : Yes
Format settings, RefFrames : 3 frames
Codec ID : V_MPEG4/ISO/AVC
Duration : 2 h 44 min
Bit rate : 879 kb/s
Width : 1 280 pixels
Height : 720 pixels
Display aspect ratio : 16:9
Frame rate mode : Constant
Frame rate : 25.000 FPS
Color space : YUV
Chroma subsampling : 4:2:0
Bit depth : 8 bits
Scan type : Progressive
Bits/(Pixel*Frame) : 0.038
Stream size : 1.01 GiB (87%)
Title : www.MovCr.com
Default : Yes
Forced : No
Color range : Limited
Color primaries : BT.709
Transfer characteristics : BT.709
Matrix coefficients : BT.709

Audio
ID : 2
Format : AAC
Format/Info : Advanced Audio Codec
Format profile : LC
Codec ID : A_AAC-2
Duration : 2 h 44 min
Bit rate : 126 kb/s
Channel(s) : 2 channels
Channel positions : Front: L R
Sampling rate : 44.1 kHz
Frame rate : 43.066 FPS (1024 SPF)
Compression mode : Lossy
Stream size : 148 MiB (12%)
Title : www.MovCr.com
Language : Hindi
Default : Yes
Forced : No

Text
ID : 3
Format : UTF-8
Codec ID : S_TEXT/UTF8
Codec ID/Info : UTF-8 Plain Text
Duration : 1 h 38 min
Bit rate : 24 b/s
Count of elements : 632
Stream size : 17.5 KiB (0%)
Title : www.MovCr.com
Language : English
Default : Yes
Forced : No












Similar Torrents

No Similar Torrents Found

If we find similar torrents, we normally show them right here. We couldn't find anything for "".

Torrent Trackers

Files inside this torrent

FILENAMESIZE
icon www.MovCr.com - Suriya Ka Yaarana (2018) 720p Hindi Dubbed WEBHD x264 AAC ESubs 1.1GB - MovCr.mkv1.2 GB